Jaakko Kuusisto -《西贝柳斯早期小提琴奏鸣曲作品卷一、二》(SIBELIUS Youth violin and piano Vols1,2)Folke Gräsbeck[APE]

Jaakko Kuusisto -《西贝柳斯早期小提琴奏鸣曲作品卷一、二》(SIBELIUS Youth violin and piano Vols1,2)Folke Gräsbeck[APE]
  • 片  名  Jaakko Kuusisto -《西贝柳斯早期小提琴奏鸣曲作品卷一、二》(SIBELIUS Youth violin and piano Vols1,2)Folke Gräsbeck[APE]
  • 简  介  发行时间: 2000年
  • 类  别  音乐
  • 小  类  古典音乐


  • 详细介绍专辑英文名: SIBELIUS Youth violin and piano Vols1,2专辑中文名: 西贝柳斯早期小提琴奏鸣曲作品卷一、二别名: SIBELIUS Complete Youth Production for Violin and Piano Vols.1 2艺术家: Jaakko Kuusisto资源格式: APE版本: Folke Gräsbeck发行时间: 2000年地区: 芬兰简介:
    作曲:Jean Sibelius
    演奏:
    Jaakko Kuusisto (violin)
    Folke Gräsbeck (piano)
    录音日期:1997-1999
    发行公司:Grammofon AB BIS
    CD编号:BIS-CD-1022 1023
    资源出处(Credit):Emule
    专辑介绍:
    西贝柳斯的青少年时代
      西贝柳斯从童年就开始学习小提琴,但14岁才正式拜师学艺。中学时代开始热衷于室内乐曲,经常为小提琴与钢琴创作一些小旋律与和声,渐渐显露出非凡的音乐才能。他写的第一首作品就是供小提琴拨弦演奏的曲子。他曾在日记里写道:“我一接触小提琴就被她完全吸引,所以今后的十年,我最大的愿望就是要成为伟大的小提琴演奏家。”
      然而十九岁时,为了顺从家人的意愿,还是进入了赫尔辛基大学修读法律课程,同时进入当时建校才3年的赫尔辛基音乐学院(现为西贝流士音乐院)深造。隔年冬天,因为对音乐的热忱愈来愈高,以致于次年从大学退学,责无旁贷,一心迈进音乐之路。在音乐院专攻小提琴与作曲,当时遇到意大利钢琴家兼作曲家布梭尼,似乎给他早期的音乐思想很大影响。
      西贝柳斯青年时期的创作主要是室内乐作品,1889年,西贝柳斯以两部颇受好评的室内乐──《A大调弦乐三重奏》和《a小调弦乐四重奏》 ,结束了在音乐学院的学习。随即获得一笔奖学金,去柏林深造,从A.贝克尔学习作曲理论。柏林的音乐生活使西贝柳斯的艺术眼界大为开阔,受益不浅。1890年秋,西贝柳斯回到芬兰,短暂停留后,又去维也纳进修,受教于R.富克斯和K.戈德马克。这段时间,他还曾经为争取进入维也纳爱乐而努力过;1891年回国后不久,受聘在赫尔辛基音乐学院任教,同时从事创作。他的创作成就,逐渐受到国内舆论的重视。
      从1897年起,西贝柳斯得到皇家议会给予的年金,使他得以减轻教学负担,用更多时间从事创作。直到1903年,西贝柳斯开始创作大型管弦乐作品时,旧日成为小提琴演奏家的心愿早已放弃。。。。。。
    (整理)
    Life, thankfully, can be full of surprises. For years, nearly all the pieces on these two discs were thought to be lost. Thanks to the Sibelius family, which donated an extensive collection of manuscripts to the University of Helsinki in 1982, we can now hear these works for ourselves, and even though they are essentially juvenilia, they are well worth a listen.
    These two discs contain everything Sibelius wrote for violin and piano from 1883 to 1890, including compositions he wrote while living in Berlin and Vienna. Anyone expecting to hear hints of music the composer would write later, or the sophistication of a prodigy on the level of a Mendelssohn or Korngold, will be seriously disappointed. On the other hand, anyone wanting to hear light, tuneful and exceptionally pleasant music is going to have a very good time.
    All the recordings except for the Suite in E major and the Sonata in F major are world premieres. Violinist Jaakko Kuusisto and pianist Folke Gräsbeck, who played all of these works at Sibelius Hall in Järvenpää, Finland in September 1999, perform with all the charm and simple enjoyment that these compositions deserve. Kuusisto s tone, never strident or thin, is clear, bell-like and extremely pleasant on the ear.
    (inkpot by Jonathan Yungkans)
  • Jaakko Kuusisto -《西贝柳斯早期小提琴奏鸣曲作品卷一、二》(SIBELIUS Youth violin and piano Vols1,2)Folke Gräsbeck[APE]_large

精选评论

谢谢楼主,西贝柳斯的小奏很稀罕
good
PERFORMER "Ashkenazy"
TITLE "Richard Strauss - Violin,Oboe,Clarinet & Bassoon Concertos - RSO Berlin"
FILE "01 - Violinkonzert d-moll op. 8 - I; Allegro.ape" WAVE
TRACK 01 AUDIO
TITLE "01 - Violinkonzert d-moll op. 8 - I; Allegro"
PERFORMER "Ashkenazy"
INDEX 01 00:00:00
FILE "02 - Violinkonzert d-moll op. 8 - II; Lento ma non troppo.ape" WAVE
TRACK 02 AUDIO
TITLE "02 - Violinkonzert d-moll op. 8 - II; Lento ma non troppo"
PERFORMER "Ashkenazy"
INDEX 01 00:00:00
FILE "03 - Violinkonzert d-moll op. 8 - III; Rondo; Presto.ape" WAVE
TRACK 03 AUDIO
TITLE "03 - Violinkonzert d-moll op. 8 - III; Rondo; Presto"
PERFORMER "Ashkenazy"
INDEX 01 00:00:00
FILE "04 - Oboenkonzert AV 144 - I; Allegro moderato.ape" WAVE
TRACK 04 AUDIO
TITLE "04 - Oboenkonzert AV 144 - I; Allegro moderato"
PERFORMER "Ashkenazy"
INDEX 01 00:00:00
FILE "05 - Oboenkonzert AV 144 - II; Andante.ape" WAVE
TRACK 05 AUDIO
TITLE "05 - Oboenkonzert AV 144 - II; Andante"
PERFORMER "Ashkenazy"
INDEX 01 00:00:00
FILE "06 - Oboenkonzert AV 144 - III; Vivace-Allegro.ape" WAVE
TRACK 06 AUDIO
TITLE "06 - Oboenkonzert AV 144 - III; Vivace-Allegro"
PERFORMER "Ashkenazy"
INDEX 01 00:00:00
FILE "07 - Duett-Concertino AV 147 - I; Allegro moderato.ape" WAVE
TRACK 07 AUDIO
TITLE "07 - Duett-Concertino AV 147 - I; Allegro moderato"
PERFORMER "Ashkenazy"
INDEX 01 00:00:00
FILE "08 - Duett-Concertino AV 147 - II; Andante.ape" WAVE
TRACK 08 AUDIO
TITLE "08 - Duett-Concertino AV 147 - II; Andante"
PERFORMER "Ashkenazy"
INDEX 01 00:00:00
FILE "09 - Duett-Concertino AV 147 - III; Rondo. Presto.ape" WAVE
TRACK 09 AUDIO
TITLE "09 - Duett-Concertino AV 147 - III; Rondo. Presto"
PERFORMER "Ashkenazy"
INDEX 01 00:00:00
想贴另一个专辑的cue的,不小心贴错了,请lz勿怪,麻烦版主删了,以免误导
两个CUE文件均无法打开相对应的APE文件。楼主辛苦了,请查一下。再单独发一下两个CUE文件。还有,文件长度77分钟。如何刻录CD?
俺用Foobar2000 0.9x打开cue是正常的。估计是不同播放器新旧foo_input_std插件版本的问题~

解决方法:
用Foobar(任何版本)打开APE文件(不是CUE),右键点击该APE文件,从弹出菜单中选择“数据库→从文件移除标签”命令,关闭Foobar,重新用你正在使用播放器打开cue即可解决。

质量好点的CD-R刻录80分钟以内的文件应该还是可以胜任的。
刻录时显示CUE 文件读取错误,(行1),不知道什么原因,楼主还是重发个CUE吧,谢谢了!
刻录读取错误,可是能正常播放!!
请问LZ 我也有很多好的音乐资源,想和大家分享。怎样才能发贴到主页上让大家下载呢?请详解 ,不胜感
刻录出错的朋友同样参照7楼“解决方法”(已试过没问题)。
10楼乐友先申请注册成为VC论坛会员自然会得到详解~~
谢谢分享 一直很喜欢他
感谢楼主的倾情奉献,让我终于找到了
最近对其小提琴协奏曲甚是感兴趣,看到楼主的源,正好了解一下其作曲的演变过程,谢谢楼主了,呵呵
不知道源的情况如何啊,哈哈