林志炫 -《熟情歌》[APE]

林志炫 -《熟情歌》[APE]
  • 片  名  林志炫 -《熟情歌》[APE]
  • 简  介  发行时间: 2005年地区: 大陆语言: 普通话
  • 类  别  音乐
  • 小  类  华语音乐


  • 详细介绍专辑中文名: 熟情歌歌手: 林志炫资源格式: APE发行时间: 2005年地区: 大陆语言: 普通话简介:
    专辑介绍:
    不久前林志炫推出了全新专辑,主打歌《熟男情歌》从名字上便不难看出是《单身情歌》的姊妹篇。曾有人担心《熟男情歌》会成为《单身情歌》的狗尾续貂之作,不过从它很快就登上一搜MP3飙升榜并排名前列的情况来看人们对这首姊妹篇还是相当认可的。
    《熟男情歌》延续了林志炫一致的细腻风格,歌手凭借文质彬彬的音色和舒缓的节奏把一个关于爱情和成长的话题娓娓道来。林志炫在谈到这首歌的立意时动情的说:“如果《单身情歌》表现的是我对爱的等待的话,那么《熟男情歌》则是我对爱人和爱情的表白。”的确,聆听全曲我们可以感到与《单身情歌》相比这首歌的旋律少了几分跳跃,悠长的大调音阶讲述着从男孩到男人过程中的酸甜苦辣,即便是绚丽的高音也被林志炫用假声演绎得恰到好处。
    《熟男情歌》的歌词较长带有鲜明的散文色彩,虽然这在一定程度上会影响歌迷学唱但也正是凭借绚丽曲折的歌词内容使它紧紧抓住了歌迷的心,特别是男性歌迷的心。不少听过此歌的朋友无一例外的提到一句歌词:要用耐心听对方的解释,当我们有时候太自私别滥用难懂的暗示,要大声坦白用包容赶走无知给爱一个位置。朋友们说这句歌词是女人送给男人爱情箴言,是男人唱给女人的内心独白。正如林志炫自己所说:“我现在对爱情的态度是不容易受伤,也不会去伤害别人。我暂时还没有可以表白的爱情出现,不过我相信《熟男情歌》是一定可以用上的。”
  • 林志炫 -《熟情歌》[APE]_large

精选评论

这个压缩包里面是没有cue文件的,需要自己用Foobar2000生成。
或是直接去

下载
实在太谢谢楼上了
REM GENRE Pop
REM DATE 2005
TITLE "熟情歌"
FILE "林志炫.-.[熟情歌].专辑.(APE).ape" WAVE
TRACK 01 AUDIO
TITLE "消失的年代"
PERFORMER "林志炫"
INDEX 01 00:00:00
TRACK 02 AUDIO
TITLE "说不出的告别"
PERFORMER "林志炫"
INDEX 00 04:15:26
INDEX 01 04:17:22
TRACK 03 AUDIO
TITLE "幸福公路"
PERFORMER "林志炫"
INDEX 00 09:47:66
INDEX 01 09:49:47
TRACK 04 AUDIO
TITLE "熟男情歌"
PERFORMER "林志炫"
INDEX 00 13:50:10
INDEX 01 13:51:67
TRACK 05 AUDIO
TITLE "我们还是朋友吗"
PERFORMER "林志炫"
INDEX 00 19:03:24
INDEX 01 19:05:30
TRACK 06 AUDIO
TITLE "一念之间"
PERFORMER "林志炫"
INDEX 00 24:13:17
INDEX 01 24:15:07
TRACK 07 AUDIO
TITLE "鳄鱼的眼泪"
PERFORMER "林志炫"
INDEX 00 28:33:49
INDEX 01 28:35:40
TRACK 08 AUDIO
TITLE "眼睛不听话"
PERFORMER "林志炫"
INDEX 00 32:49:49
INDEX 01 32:51:17
TRACK 09 AUDIO
TITLE "时光倒流"
PERFORMER "林志炫"
INDEX 00 36:31:47
INDEX 01 36:33:32
TRACK 10 AUDIO
TITLE "凤凰花开的路口"
PERFORMER "林志炫"
INDEX 00 41:15:60
INDEX 01 41:17:32
TRACK 11 AUDIO
TITLE "Oh My Baby"
PERFORMER "谢宇书"
INDEX 00 49:42:00
INDEX 01 49:43:72
谢谢。
附加了一首什么谢宇书唱的歌,像坨屎一样,真讨厌
这是大陆引进版,少了一首 说不出的告别 piano版,为推荐新人多了一首谢宇书的,真垃圾
非常感谢,省去自己找时间了,呵呵