夏川里美 -《SINGLE COLLECTION Vol.1》专辑[APE]

夏川里美 -《SINGLE COLLECTION Vol.1》专辑[APE]
  • 片  名  夏川里美 -《SINGLE COLLECTION Vol.1》专辑[APE]
  • 简  介  发行时间: 2005年03月16日地区: 日本语言: 日语
  • 类  别  音乐
  • 小  类  日韩音乐


  • 详细介绍专辑中文名: SINGLE COLLECTION Vol.1歌手: 夏川里美资源格式: APE版本: 专辑发行时间: 2005年03月16日地区: 日本语言: 日语简介:
    专辑介绍:
    在NHK红白歌唱大赛中一战成名的夏川里美,最近在日本又以《童神》这首歌曲,在孕妇间口耳相传的神奇安胎疗效,引起另一波的目,预估在《童神》的庇荫下,很有可能以这首歌曲,连续两年挥军红白大赛。这次来台的演出中,她也将现场演出这首歌曲,同时也希望能有很多孕妇来到现场一起体验这首歌曲的神奇力量。故乡位于冲绳石垣岛的夏川里美,早就对台湾充满了好奇,尤其是经过Kiroro强力灌输她来台时的美食体验,更让夏川里美通过经纪人拜托台湾工作人员,一定要在紧凑的台湾宣传行程中,排出享受美食以及到夜市开开眼界的行程。
  • 夏川里美 -《SINGLE COLLECTION Vol.1》专辑[APE]_large

精选评论

吾皇萬歲…..萬萬歲….
我朋友说,她是日本这二十年来,最精彩的演歌者,声音真实纯朴,很喜欢 感谢您的分享
昨天偶然在CHANLE V里听到夏川的泪光闪闪, 太惊艳了!!!
感觉她的声音像雨后的彩虹一样温馨华丽,
于是立马跑这来找高音质版本,
嘿嘿,谢谢楼主的热情分享哦~~~
本名兼久里美的夏川里美,天生就擁有一副好歌喉,而且勇於在眾人面前展現,從八歲那年首度參加故鄉石垣有線電視主辦的「第一屆小朋友好歌喉大賽」獲得優勝之後,及不斷稱霸日本各大歌唱比賽,在12歲時,不僅以沖繩現代表的身份拿下NTV(日本電視台)主辦的「閃亮第八屆日本兒童歌謠大賞」冠軍,更在同年以沖繩縣代表身份出席第10屆「長崎歌謠祭」勇奪第一名的成績,創下大會開辦以來最年輕參賽者榮獲優勝的紀錄,並進而成為知名唱片公司培訓歌手。高一時,更憑藉著過人的歌喉,通過即為嚴苛的NHK(日本放送協會)歌手審定;並被當時歌手審定委員會委員長藤山一郎(歿)讚譽為「四十年才出現一次歌手」,同時更創下以未發片歌手身份即得以在NHK電視台歌唱節目中演唱的第一人。
其实我也是在CHANLE V里听到夏川的《泪光闪闪》之后才来电驴找资源的~
去年在广州HIFI音响展中一台湾HIFI杂志主编用夏川的《泪光闪闪》高清节目作演示,那一刻记下了她的名字.不过CD难找,请问APE转CD用什么软件好,试了用Monkey's Audio不好转.
楼主,CUE文件不对啊,麻烦再上一个。着急啊。谢谢谢谢!
cue 文件 用 记事本打开 一半都是 对应的 APE文件名字 没对上,自己动手修改一下就OK了
改完累死
兄弟们歌名就自己添加吧
PERFORMER "1"
TITLE "SINGLE COLLECTION vol.1"
FILE "夏川里美.-.[唯一珍藏.SINGLE.COLLECTION.Vol.1].专辑.(ape).ape" WAVE
TRACK 01 AUDIO
PERFORMER "夏川里美"
INDEX 01 00:00:00
TRACK 02 AUDIO
PERFORMER "夏川里美"
INDEX 00 04:51:51
INDEX 01 04:54:15
TRACK 03 AUDIO
PERFORMER "夏川里美"
INDEX 00 09:22:56
INDEX 01 09:25:20
TRACK 04 AUDIO
PERFORMER "夏川里美"
INDEX 00 14:36:04
INDEX 01 14:38:42
TRACK 05 AUDIO
PERFORMER "夏川里美"
INDEX 00 20:20:66
INDEX 01 20:23:30
TRACK 06 AUDIO
PERFORMER "夏川里美"
INDEX 00 24:41:66
INDEX 01 24:44:30
TRACK 07 AUDIO
PERFORMER "夏川里美"
INDEX 00 29:05:41
INDEX 01 29:08:05
TRACK 08 AUDIO
PERFORMER "夏川里美"
INDEX 00 33:32:74
INDEX 01 33:35:37
TRACK 09 AUDIO
PERFORMER "夏川里美"
INDEX 00 38:21:46
INDEX 01 38:24:10
TRACK 10 AUDIO
PERFORMER "夏川里美"
INDEX 00 43:31:31
INDEX 01 43:33:70
TRACK 11 AUDIO
PERFORMER "夏川里美"
INDEX 00 48:14:06
INDEX 01 48:16:45
TRACK 12 AUDIO
PERFORMER "夏川里美"
INDEX 00 53:01:41
INDEX 01 53:04:02
TRACK 13 AUDIO
PERFORMER "夏川里美"
INDEX 00 57:20:39
INDEX 01 57:23:02
TRACK 14 AUDIO
PERFORMER "夏川里美"
INDEX 00 62:01:74
INDEX 01 62:04:37
这张高音有爆音
爆音太多了 还是下其他专辑吧 不要在这浪费时间
好音乐,女声不错,高音很自然,不过这专集压缩好象有点问题.