《轻音原声集》(K-ON!)[TVA OST][百石元][+Scans][TAK]

《轻音原声集》(K-ON!)[TVA OST][百石元][+Scans][TAK]
  • 片  名  《轻音原声集》(K-ON!)[TVA OST][百石元][+Scans][TAK]
  • 简  介  发行时间: 2009年06月03日对白语言: 日语文字语言: 日文
  • 类  别  动漫
  • 小  类  动漫周边


  • 详细介绍简介: 【details】
    TVアニメ「けいおん!」オリジナルサウンドトラック メディア: アルバムCD
    発売日: 2009/06/03
    # 価格: 3150円(税込)
    * 内容
    TVアニメ「けいおん!」のオリジナルサウンドトラックが登場!!
    【credits】
    百石元 (作曲)
    【tracklist】
    1.Have some tea?
    2.Morning dew
    3.急げや急げ!
    4.かわいい陰謀
    5.2匹の子猫
    6.いい夢見てね
    7.Cotton candy
    8.Virtual love
    9.タンポポ宅急便
    10.うっかり君の為に
    11.Genki!
    12.おばあちゃんのタンス
    13.The other side of evening sun
    14.Dead soldiers(笑)
    15.Hold on your love
    16.Falling reinforced concrete
    17.Small flashing
    18.けん玉くん
    19.軽い冗談
    20.クレープはいかが?
    21.Happy languidness
    22.Emerald green
    23.My hometown where it snows
    24.銀世界の朝
    25.Tea at the night of Christmas
    26.子猫の演奏会
    27.Patrol of stroll
    28.Doki Doki Friday night
    29.りんご・・・Ringo・・・リンゴ飴
    30.15歳のマーチ
    31.じゃじゃ馬3人娘
    32.Hesitation
    33.ピンチ大好き!
    34.ドレスにクレープは似合わない?
    35.あの日の夢
    36.Happy End
    【story】
    新學年開始,櫻丘高中(日文:桜が丘高校,在動畫中是女子學校)「輕音部」因原有部員全部畢業離校而無法滿足至少4人的數量要求。此時4名高一女生機緣巧合先後加入,使輕音部免於廢除。K-ON!的故事也就此展開。
  • 《轻音原声集》(K-ON!)[TVA OST][百石元][+Scans][TAK]_large

精选评论

REM GENRE Soundtrack
REM DATE 2009/06/03
REM DISCID 0C0E6F24
REM COMMENT ExactAudioCopy v0.99pb5
PERFORMER ""
TITLE "K-ON! ORIGINAL SOUND TRACK"
FILE "PCCG-00961.wav" WAVE
TRACK 01 AUDIO
TITLE "Have some tea?"
ISRC JPPC00901241
INDEX 01 00:00:00
TRACK 02 AUDIO
TITLE "Morning dew"
ISRC JPPC00901242
INDEX 00 01:47:42
INDEX 01 01:49:12
TRACK 03 AUDIO
TITLE "急げや急げ!"
ISRC JPPC00901243
INDEX 00 03:32:27
INDEX 01 03:33:72
TRACK 04 AUDIO
TITLE "かわいい陰謀"
ISRC JPPC00901259
INDEX 00 05:06:56
INDEX 01 05:08:26
TRACK 05 AUDIO
TITLE "2匹の子猫"
ISRC JPPC00901244
INDEX 00 06:49:03
INDEX 01 06:50:48
TRACK 06 AUDIO
TITLE "いい夢見てね"
ISRC JPPC00901245
INDEX 00 08:23:36
INDEX 01 08:25:06
TRACK 07 AUDIO
TITLE "Cotton candy"
ISRC JPPC00901246
INDEX 00 10:12:04
INDEX 01 10:13:49
TRACK 08 AUDIO
TITLE "Virtual love"
ISRC JPPC00901247
INDEX 00 12:04:48
INDEX 01 12:06:18
TRACK 09 AUDIO
TITLE "タンポポ宅急便"
ISRC JPPC00901248
INDEX 00 13:55:61
INDEX 01 13:57:36
TRACK 10 AUDIO
TITLE "うっかり君の為に"
ISRC JPPC00901249
INDEX 00 15:36:10
INDEX 01 15:38:05
TRACK 11 AUDIO
TITLE "Genki!"
ISRC JPPC00901250
INDEX 00 17:15:29
INDEX 01 17:16:74
TRACK 12 AUDIO
TITLE "おばあちゃんのタンス"
ISRC JPPC00901251
INDEX 00 18:54:32
INDEX 01 18:56:02
TRACK 13 AUDIO
TITLE "The other side of evening sun"
ISRC JPPC00901252
INDEX 00 20:43:72
INDEX 01 20:45:42
TRACK 14 AUDIO
TITLE "Dead soldiers(笑う)"
ISRC JPPC00901253
INDEX 00 22:33:52
INDEX 01 22:35:22
TRACK 15 AUDIO
TITLE "Hold on to your love"
ISRC JPPC00901254
INDEX 00 24:18:60
INDEX 01 24:20:30
TRACK 16 AUDIO
TITLE "Falling reinforced concrete"
ISRC JPPC00901255
INDEX 00 26:16:41
INDEX 01 26:18:17
TRACK 17 AUDIO
TITLE "Small flashing"
ISRC JPPC00901256
INDEX 00 28:06:19
INDEX 01 28:08:65
TRACK 18 AUDIO
TITLE "けん玉くん"
ISRC JPPC00901257
INDEX 00 29:46:55
INDEX 01 29:48:25
TRACK 19 AUDIO
TITLE "軽い冗談"
ISRC JPPC00901258
INDEX 00 29:55:63
INDEX 01 29:57:33
TRACK 20 AUDIO
TITLE "クレープはいかが?"
ISRC JPPC00901260
INDEX 00 31:33:74
INDEX 01 31:35:44
TRACK 21 AUDIO
TITLE "Happy languidness"
ISRC JPPC00901261
INDEX 00 33:07:57
INDEX 01 33:09:27
TRACK 22 AUDIO
TITLE "Emerald green"
ISRC JPPC00901262
INDEX 00 34:46:46
INDEX 01 34:48:16
TRACK 23 AUDIO
TITLE "My hometown where it snows"
ISRC JPPC00901263
INDEX 00 36:21:40
INDEX 01 36:23:10
TRACK 24 AUDIO
TITLE "銀世界の朝"
ISRC JPPC00901264
INDEX 00 38:24:52
INDEX 01 38:26:22
TRACK 25 AUDIO
TITLE "Tea at the night of Christmas"
ISRC JPPC00901265
INDEX 00 40:11:72
INDEX 01 40:13:42
TRACK 26 AUDIO
TITLE "子猫の演奏会"
ISRC JPPC00901266
INDEX 00 42:10:45
INDEX 01 42:12:15
TRACK 27 AUDIO
TITLE "Patrol of stroll"
ISRC JPPC00901267
INDEX 00 43:45:29
INDEX 01 43:46:74
TRACK 28 AUDIO
TITLE "Doki Doki Friday night"
ISRC JPPC00901268
INDEX 00 45:24:35
INDEX 01 45:26:05
TRACK 29 AUDIO
TITLE "りんご…Ringo…リンゴ飴"
ISRC JPPC00901269
INDEX 00 47:08:17
INDEX 01 47:09:62
TRACK 30 AUDIO
TITLE "15歳のマーチ"
ISRC JPPC00901270
INDEX 00 48:55:31
INDEX 01 48:57:01
TRACK 31 AUDIO
TITLE "じゃじゃ馬3人娘"
ISRC JPPC00901271
INDEX 00 50:34:32
INDEX 01 50:36:05
TRACK 32 AUDIO
TITLE "Hesitation"
ISRC JPPC00901272
INDEX 00 52:21:71
INDEX 01 52:23:61
TRACK 33 AUDIO
TITLE "ピンチ大好き!"
ISRC JPPC00901273
INDEX 00 54:21:34
INDEX 01 54:23:04
TRACK 34 AUDIO
TITLE "ドレスにクレープは似合わない?"
ISRC JPPC00901274
INDEX 00 56:06:44
INDEX 01 56:08:14
TRACK 35 AUDIO
TITLE "あの日の夢"
ISRC JPPC00901275
INDEX 00 58:09:16
INDEX 01 58:10:61
TRACK 36 AUDIO
TITLE "Happy End"
ISRC JPPC00901276
INDEX 00 59:54:07
INDEX 01 59:55:52
感谢LS的CUE..
为什么我改了CUE还是播放不了???
而且把CUE删掉直接用FOOBAR播都失败,播其他TAK都没问题,CUE反复检查也没问题,不知有没其他朋友也遇到这个问题呢?
不能播放的朋友把TAK插件升级到1.1.1吧,呵呵,原来是插件问题

http://www.thbeck.de/Tak/Tak.html

再不行可以将CUE转码成UTF-8 或 GBK
楼主,还是把它转成mp3吧,我想用tak的人还是不多的拉~~

长期源,夜间休息。

原来是新版本的TAK,害我折腾了半天,直到升级了Foobar里面的tak_deco_lib.dll才终于能播放了。累orz
为照顾非无损党以及抓破头也搞不定TAK的驴友们,奉上自制Mp3。(无损党敬请无视)
真的,好累。。。
还没找到 foobar 9.6.1 播放TAK的方法~~~~~搞得我有种遇到鸡肋的感觉。
我foobar还不是9.6的
9.4.1的 但tak更新的是最新的啊
cue也改成utf-8了
就是播不了- -..~


还有就是tak_deco_lib.dll 不管用饿
跪求解决方法(我潜水千年的都爬出来55)
哦 哦 是要更新最新的tak_deco_lib.dll
我之前版本低些 可以播了 - -
我错了 ..继续潜水
轻音太萌了~~我根本没有抵抗力~~~感谢LZ的分享~!
感谢分享~~lz真是太棒了^^
阿里阿到