《正义战士》(The Centurions)[英文无字幕][65集全][TVRip]

《正义战士》(The Centurions)[英文无字幕][65集全][TVRip]
  • 片  名  《正义战士》(The Centurions)[英文无字幕][65集全][TVRip]
  • 简  介  发行时间: 1985年语言: 英语
  • 类  别  动漫
  • 小  类  电视动画


  • 详细介绍中文名: 正义战士英文名: The Centurions版本: [英文无字幕][65集全][TVRip]发行时间: 1985年地区: 美国语言: 英语简介:
    【片名】:《 正义战士 》
    【字幕】:无
    【格式】:AVI
    【制作时间】:1985-1987
    【发行公司】:Ruby-Spear
    【内容介绍】
    有四个主人公,三男一女,女的叫“克林斯托.凯恩”(音译)驾驶“天庭号”(音译),男主公叫 艾斯迈克劳德,捷克洛克韦尔,迈克斯瑞。海陆空三大主角 。邪恶的一方叫“钛摩”(音译)博士,很丑。 配音演员里有王晓燕 里面经典的一句是 神力无敌 那个疯狂的博士原名叫Dr. Terror(原先是个完整的人,因为事故重伤,自己将自己改造,有一集是他回忆这个情节),他的助手则叫Hacker。博士还有一个女儿。 正义一方里面,身着蓝、黄、绿色战斗服分别是Ace McCloud、Jake Rockwell、Max Ray,不过后来又增加了两位战士:Rex Charger(大胡子俄罗斯人),John Thunder(美国印第安人)。
    负责Sky Vault空间站的那位美女叫Crystal Kane,那只猩猩叫Lucy。 那句“神力无敌”的口号原文是:Man and machine, Power Xtreme
    片头OP中的解说词:
    In the near future Doc Terror and his cyborg companion Hacker, unleash their forces to conquer earth.
    Only one force can stop this evil: a handful of brave men; in specially created exoframes they can be transported anywhere to fuse with incredible assault weapons. Beamed down from the space station Sky Vault, becoming man and machine,
    Power Xtreme
    Max Ray: Brilliant Sea Operations Commander.
    Jake Rockwell: Rugged Land Operations Specialist.
    Ace McCloud: Daring Air Operations Expert.
    Whatever the challenge, they are ready:
    Centurions
    Power Extreme
    【文件信息】
    引用Centurions - 01 - The Sky Is On Fire.avi
    General
    Complete name : Centurions - 01 - The Sky Is On Fire.avi
    Format : AVI
    Format/Info : Audio Video Interleave
    File size : 97.8 MiB
    Duration : 21mn 36s
    Overall bit rate : 632 Kbps
    Writing library : VirtualDub build 13130/release
    Video
    Format : MPEG-4 Visual
    Codec ID : DIV3
    Codec ID/Hint : DivX 3 Low
    Duration : 21mn 36s
    Bit rate : 525 Kbps
    Width : 400 pixels
    Height : 304 pixels
    Display aspect ratio : 4/3
    Frame rate : 29.970 fps
    Resolution : 24 bits
    Bits/(Pixel*Frame) : 0.144
    Stream size : 81.1 MiB (83%)
    Audio
    Format : MPEG Audio
    Format version : Version 1
    Format profile : Layer 3
    Codec ID : 55
    Codec ID/Hint : MP3
    Duration : 21mn 36s
    Bit rate mode : Constant
    Bit rate : 96.0 Kbps
    Channel(s) : 2 channels
    Sampling rate : 44.1 KHz
    Resolution : 16 bits
    Stream size : 14.8 MiB (15%)
    Alignment : Split accross interleaves
    Interleave, duration : 33 ms (1.00 video frame)
    Interleave, preload duration : 457 ms
    另外加三个实际文件的截图
  • 《正义战士》(The Centurions)[英文无字幕][65集全][TVRip]_large

精选评论

有看过的人没,出来说说怎样。
还行,就是盔甲系的,每个人几套装备来回倒,中央6台播过...
小时候cctv放的经典动画
楼上很恶搞!其实动画还行,只不过我们长大了
很经典的...
儿时的经典啊
就像勇者王那样经典哦~
小时候常看 不过英文苦手....
小时候的经典呢
神力无敌 哈哈
可惜是没有字幕的
经典老片啦~~~~支持
儿时经典
可惜没有字幕,听不懂
记得小时候还买过 邪恶红老大 的玩具
好像还可以当手电筒用。。。