碧娜 -《女人的心思》DSD[APE]

碧娜 -《女人的心思》DSD[APE]
  • 片  名  碧娜 -《女人的心思》DSD[APE]
  • 简  介  音乐风格: 流行发行时间: 2007年07月06日地区: 大陆语言: 普通话
  • 类  别  音乐
  • 小  类  华语音乐


  • 详细介绍专辑中文名: 女人的心思歌手: 碧娜音乐风格: 流行资源格式: APE版本: DSD发行时间: 2007年07月06日地区: 大陆语言: 普通话简介: 发行公司:广东威扬文化传播有限公司
    出版:广东音像出版社
    ISRC:CN-F18-06-579-00/A.J6
    专辑介绍:
    听本专辑时,忽然想起港台电影《东成西就》里两句对白:
    周伯通:“你又何必强颜欢笑呢?”
    黄药师:“你又何必明知故问呢?”
    简简单单,却一针见血。
    你看:
    “强颜欢笑”就多了个叫“伪装” 东西。
    “明知故问”就多了个叫“解释” 东西。
    而“伪装”、“解释”,就多了个叫“复杂”东西。
    一“复杂”,就显得繁琐,往往不如“简单”那样让人觉得清新自然,让人为之打动!
    正如本专辑,歌手——碧娜只是用最质朴最本色的声音去唱,没有刻意追求技巧,没有刻意追求高保真的震撼效果,既不夸张做作,又不卖弄自己的嗓音,用心去表达最纯粹的感情,每一份感情如同从内心深处散发出来,那样的简单,那样的干净,仿佛万物历经千山万水终于尘埃落定,回到最初最原始的状态,给人一种朴实无华,清新出尘的感受,让人为之心醉,为之感慨。
    聆听碧娜,聆听她来自心底的吟唱,那种柔情似水的音色,那忧郁而又略带清纯的歌声,温柔得让人眩晕,让人窒息。歌声抚过耳畔时,心弦在不经意间触动,有一种融入骨髓的感动,让人在歌声中感动,在感动中沉醉。

  • 碧娜 -《女人的心思》DSD[APE]_large

精选评论

PERFORMER "碧娜"
TITLE "女人的心思"
FILE "碧娜.-.[女人的心思].专辑.(ape).ape" WAVE
TRACK 01 AUDIO
TITLE "你从什么时候不再爱我"
PERFORMER "碧娜"
INDEX 01 00:00:00
TRACK 02 AUDIO
TITLE "十字路口"
PERFORMER "碧娜"
INDEX 01 05:03:41
TRACK 03 AUDIO
TITLE "你别怪我"
PERFORMER "碧娜"
INDEX 01 09:34:63
TRACK 04 AUDIO
TITLE "飞舞"
PERFORMER "碧娜"
INDEX 01 14:00:08
TRACK 05 AUDIO
TITLE "抱紧我别走"
PERFORMER "碧娜"
INDEX 01 19:12:21
TRACK 06 AUDIO
TITLE "想着你睡不着"
PERFORMER "碧娜"
INDEX 01 23:51:57
TRACK 07 AUDIO
TITLE "思念(原创)"
PERFORMER "碧娜"
INDEX 01 27:51:10
TRACK 08 AUDIO
TITLE "回首往事(原创)"
PERFORMER "碧娜"
INDEX 01 33:08:64
TRACK 09 AUDIO
TITLE "香水有毒"
PERFORMER "碧娜"
INDEX 01 37:11:60
TRACK 10 AUDIO
TITLE "再一次拥有"
PERFORMER "碧娜"
INDEX 01 42:02:48
TRACK 11 AUDIO
TITLE "隐形的翅膀"
PERFORMER "碧娜"
INDEX 01 46:51:31
TRACK 12 AUDIO
TITLE "孔雀东南飞(原创)"
PERFORMER "碧娜"
INDEX 01 50:29:65
TRACK 13 AUDIO
TITLE "轮回(原创)"
PERFORMER "碧娜"
INDEX 01 55:10:37
很好听的声音,谢谢楼主了。
碧娜的歌是一定要收下的,多谢楼主了!!!
多謝
下来听听...谢楼主//

碧娜  
  ·【个人资料】
  姓名:碧娜
  英文名:Rebecca
  昵称:娜格格(是FANS(娜迷)对碧娜的亲切称呼)
  生日:3月9日 (农历正月二十五日)
  星座:双鱼
  血型:AB
  籍贯:辽宁·沈阳
  宗教信仰:佛教
  毕业院校:沈阳音乐学院
  签约公司:广东威扬文化传播有限公司
  个性:古灵精怪、情绪化、四重性格
  收藏:鞋子、手袋、配饰、CD、蜡烛
  兴趣:唱歌、跳舞、钢琴、心理学、形象设计
  最不喜欢做的事:看电影、
  最喜欢的卡通人物:机器猫
  最喜欢的歌手:张学友、Mariah Carey
  最喜欢的影星: 李英爱,姜志焕,JUNJIN
  最喜欢的服装:与众不同,变换各种类型
  最喜欢的颜色:淡粉、淡紫、淡蓝
  最向往的地方:巴黎岛
  最讨厌的地方:拥挤的地方,吸烟的地方
  最喜欢的国家:韩国
  最喜欢的运动:跳舞
  最喜欢的异性类型:幽默、成熟、体贴
  注:Rebecca
  Rebecca:利百加
  根据圣经创世纪记载,利百加(希伯来语:ribkah,意为“节成结的绳索”、用它来比喻“忠诚的妻子”)
  是以撒的妻子,孪生兄弟以扫和雅各的母亲。她是亚伯拉罕兄弟拿鹤的孙女,彼土利的女儿,亚伯拉罕是以撒的父亲。
  rebecca原为希伯来文再分析Rebecca 这个英文名字通常给人感觉的含义应该是 :
  1)你是一个勇敢面对挑战的人。
  2)遇上新相识的朋友你永远都额外谨慎。
  3)你有一棵野性的心,别害羞将它表露出来。
  4)当正思考的时候,你会变得非常沉默。
  5)Social方面,就是社交方面是你的强项,所以人缘亦算不俗。
  《蝴蝶梦(Rebecca)》是英国女作家Daphne du Maurier达夫妮杜莫丽叶 1938的一本小说名字;后被改拍成电影。
  荣获了1940年第13届奥斯卡最佳影片、最佳摄影两项奖。
  ·【获奖历程】
  1994年迎新春华阳杯中小学歌曲获比赛二等奖
  2005年"亚洲少年艺术盛典"中国才艺选拨活动辽宁地区青年组声乐专业金奖
  2005年年末广东威扬文化传播有限公司
·【音乐作品】
  2006/6/6首张个人专辑《温柔吻语》
  专辑介绍:
  2006年舒压音乐,12首歌曲。
  推荐:热唱人气单曲 《爱似神仙 》、《想起》。
  用「心」聆听碧娜12首全心体认的感动
  用「心」倾听碧娜12首藏在心语里的表情
  十二首情歌 十二种情绪 遇见一场爱情的经过
  碧娜的第一次发现
  [ 原来,最真实的声音才能带给你感动 ]
  让耳朵不再有压力
  2007/11/2三张个人专辑《伤心的理由》、《女人的心思》、《温柔吻语ii》
  №.1专辑介绍·【伤心的理由】:在碧娜那水滴般的音色的牵引下,听着她诉说着《伤心的理由》,一首歌,一段故事。每一个故事背后,都隐含着一个伤心的理由。心随歌动,回忆如影相随,似在昨天的记忆沉浮,太多太多的细枝末节,回想起来,只剩下一丝落寞,一点凄迷。
  №.2专辑介绍·【女人的心思】:
  2007年舒心音乐,12首歌曲,包括4首原创MV。
  推荐:4首原创人气单曲《孔雀东南飞》、《轮回》、《思念》、《回首往事》。
  用「心」聆听碧娜12首发自内心的感动
  用「心」感悟碧娜12首藏在歌语里的伤情
  十二首情歌 共同的情绪 遭遇一场爱情的轰击
  碧娜第一次演绎的原创人气单曲
  [ 4首,最初的声音带给你最真实的体验 ]
  让耳朵不再有压力
  [舒缓的音质] 创造音乐新生命
  再一次拥有这样的听觉感动
  2008/12/17第五张个人专辑《别太晚回家》
  专辑介绍:
  冬日的午后,拉开窗帘让阳光洒进房间里,把《别太晚回家》推进CD机,让自己蜷缩在沙发上有阳光的角落,聆听那遗落在歌声里的心情。
  柔柔的声音,轻轻的曲调,溢出些许的伤感,深深浅浅,或轻或重地划过心房,思绪开始迷离了……
  舒缓的旋律,极富画面感的歌声,如诉衷肠,千言万语都凝聚在每一个流动的音符中,虽不露痕迹,却搅乱一些情绪,让人若即若离地想起某些细节、过程与结局,勾勒出幸福,消融了寂寞,期待的希翼又开始滋长……
·【娜迷口号】
  №.1 娜么幸福
  №.2 娜么爱你
  №.3 娜由心生
  №.4 娜爱心生
  №.5 娜是无敌
  №.6 娜爱无敌
  №.7 娜么美丽
  №.8 娜么闪亮
  №.9 娜么清新
  ·【碧娜画像】
  温柔的音色,给人舒适的柔情,给人淡雅的温馨,给人温暖的问候,让人回味无穷。温柔吻语,温柔的声音,温暖的旋律,在这里,你将体会到一个温柔女孩——碧娜,带给你一个新的惊喜!
  ·【碧娜诠释温柔吻语取名背后的秘密】
  之所以给第一张专辑取名《温柔吻语》有两方面的原因:一方面大家觉得我的声音比较的细腻,轻轻的,比较温柔的那种,所以说我们公司的领导才决定取这个名《温柔吻语》;另一个因为我的性格不像外向的女孩,是比较文雅的那种,所以取这个名字跟我的性格比较的贴切。


以上资料转载自百度百科
  
很爱她...
感谢楼主分享!辛苦了,多谢!
想要她的DVD!!!
多謝樓主!
音色很好,下载听后,专程来道谢了。楼主辛苦。多谢。收集她的唱片行动进行中。
支持,顶了!
这种声音就是一种享受