《東方JeuXinTerdiTs》[C77][イオシス][東方][同人音楽][附BK][TTA]

《東方JeuXinTerdiTs》[C77][イオシス][東方][同人音楽][附BK][TTA]
  • 片  名  《東方JeuXinTerdiTs》[C77][イオシス][東方][同人音楽][附BK][TTA]
  • 简  介  发行时间: 2009年12月30日对白语言: 日语文字语言: 日文
  • 类  别  动漫
  • 小  类  动漫周边


  • 详细介绍中文名: 東方JeuXinTerdiTs资源格式: TTA版本: [C77][イオシス][東方][同人音楽][附BK]发行时间: 2009年12月30日地区: 日本对白语言: 日语文字语言: 日文简介: 【專輯介紹】
    『東方JeuXinTerdiTs』■発売日 : 2009/12/30
    ■分类 : 音楽CD
    ■価格 : 800円(税込)
    ■収録 : 全7曲
    ■発売元 : イオシス
    ■ジャンル : 東方Project
    ■年齢制限 : 一般
    ■商品コード :4582209170846
    【アーティスト/ キャスト】
    All Music Arrange Guitar Play minami (イオシス)
    Produce 夕野ヨシミ (イオシス)
    Mastering quad (luvtrax)
    Jacket Illustration 閏月戈 (タケミカヅキ、)
    Package Design JiNG*da*LaW (Iemitsu.Productions)
    「內容」
    ――禁じられた破滅の音を、聴くがよい。
     イオシスのminamiによる東方インストアレンジ楽曲集!
     破滅の旋律が漲り溢れ、全ての生命を奪い去る。
    【收錄曲目】
    01 : Gorgeous Guardian
         原曲:東方紅魔郷より「上海紅茶館 ~ Chinese Tea」
    02 : Jeux Interdits
         原曲:東方紅魔郷より「U.N.オーエンは彼女なのか?」
    03 : Homicide Moon
         原曲:東方紅魔郷より「月時計 ~ ルナ・ダイアル」
    04 : Mother Goddess
         原曲:東方風神録より「ネイティブフェイス」
    05 : Resurrection Blossom
         原曲:東方妖々夢より「幽雅に咲かせ、墨染の桜 ~ Border of Life」
    06 : Accept Bloody Fate
         原曲:東方紅魔郷より「亡き王女の為のセプテット」
    07 : Dusk of Life
         原曲:東方風神録より「プレイヤーズスコア」
    【官方網站】

  • 《東方JeuXinTerdiTs》[C77][イオシス][東方][同人音楽][附BK][TTA]_large

精选评论

等硬盘价格降下去点在回来收下......
感谢了! 支持!!
封面党出现~
支持同人...支持C77...支持楼主 谢谢分享~~!
REM GENRE Game
REM DATE 2009
REM DISCID 5605CE07
REM COMMENT "ExactAudioCopy v0.99pb5"
PERFORMER "イオシス"
TITLE "東方JeuXinTerdiTs"
FILE "東方JeuXinTerdiTs.tta" WAVE
TRACK 01 AUDIO
TITLE "Gorgeous Guardian"
PERFORMER "minami"
INDEX 01 00:00:00
TRACK 02 AUDIO
TITLE "Jeux Interdits"
PERFORMER "minami"
INDEX 00 04:28:39
INDEX 01 04:30:39
TRACK 03 AUDIO
TITLE "Homicide Moon"
PERFORMER "minami"
INDEX 00 08:37:08
INDEX 01 08:39:08
TRACK 04 AUDIO
TITLE "Mother Goddess"
PERFORMER "minami"
INDEX 00 11:53:46
INDEX 01 11:55:46
TRACK 05 AUDIO
TITLE "Resurrection Blossom"
PERFORMER "minami"
INDEX 00 16:24:09
INDEX 01 16:26:09
TRACK 06 AUDIO
TITLE "Accept Bloody Fate"
PERFORMER "minami"
INDEX 00 19:43:50
INDEX 01 19:45:50
TRACK 07 AUDIO
TITLE "Dusk of Life"
PERFORMER "minami"
INDEX 00 23:19:40
INDEX 01 23:21:40
bk美~~~TVT(泪流满面)
全碟为电吉他疾走,一气呵成,听感相当大气
IOSYS支持~ 感谢分享~
二小姐...内牛碗面啊~!! 绝对要收~!